Tulasidalam 2016 CAM Telugu Movies xviD-TvMovize.mp4

seeders: 0
leechers: 0
updated:
Added by TvMovize in TV
Torrent verified.

Tulasidalam 2016 CAM Telugu Movies xviD-TvMovize.mp4 (Size: 611.04 MiB (640719793 Bytes))

Description

Tulasidalam 2016 CAM Telugu Movies xviD-TvMovize.mp4

++ ScreenShots ++
 
http://www.image2be.com/movie/Tulasidalam/1.html  
http://www.image2be.com/movie/Tulasidalam/2.html  
http://www.image2be.com/movie/Tulasidalam/3.html  
http://www.image2be.com/movie/Tulasidalam/4.html  
http://www.image2be.com/movie/Tulasidalam/5.html 

++ Info ++

Format : MPEG-4 
Format profile : Base Media 
Codec ID : isom (isom/iso2/avc1/mp41) 
File size : 611 MiB 
Duration : 1h 41mn 
Overall bit rate : 838 Kbps 
Writing application : Lavf57.20.100 

Video 
ID : 1 
Format : AVC 
Format/Info : Advanced Video Codec 
Format profile : [email protected] 
Format settings, CABAC : Yes 
Format settings, ReFrames : 4 frames 
Codec ID : avc1 
Codec ID/Info : Advanced Video Coding 
Duration : 1h 41mn 
Bit rate : 704 Kbps 
Width : 672 pixels 
Height : 288 pixels 
Display aspect ratio : 2.35:1 
Frame rate mode : Constant 
Frame rate : 25.000 fps 
Color space : YUV 
Chroma subsampling : 4:2:0 
Bit depth : 8 bits 
Scan type : Progressive 
Bits/(Pixel*Frame) : 0.145 
Stream size : 513 MiB (84%) 
Writing library : x264 core 142 r2479 dd79a61 
Encoding settings : cabac=1 / ref=1 / deblock=1:0:0 / analyse=0x1:0x111 / me=hex / subme=2 / psy=1 / psy_rd=1.00:0.00 / mixed_ref=0 / me_range=16 / chroma_me=1 / trellis=0 / 8x8dct=0 / cqm=0 / deadzone=21,11 / fast_pskip=1 / chroma_qp_offset=0 / threads=6 / lookahead_threads=2 / sliced_threads=0 / nr=0 / decimate=1 / interlaced=0 / bluray_compat=0 / constrained_intra=0 / bframes=3 / b_pyramid=2 / b_adapt=1 / b_bias=0 / direct=1 / weightb=1 / open_gop=0 / weightp=1 / keyint=250 / keyint_min=25 / scenecut=40 / intra_refresh=0 / rc_lookahead=10 / rc=crf / mbtree=1 / crf=20.0 / qcomp=0.60 / qpmin=0 / qpmax=69 / qpstep=4 / vbv_maxrate=20000 / vbv_bufsize=25000 / crf_max=0.0 / nal_hrd=none / filler=0 / ip_ratio=1.40 / aq=1:1.00 
Color range : Limited 
Color primaries : BT.601 PAL 
Transfer characteristics : BT.709 
Matrix coefficients : BT.601 

Audio 
ID : 2 
Format : AAC 
Format/Info : Advanced Audio Codec 
Format profile : LC 
Codec ID : 40 
Duration : 1h 41mn 
Bit rate mode : Constant 
Bit rate : 128 Kbps 
Channel(s) : 2 channels 
Channel positions : Front: L R 
Sampling rate : 48.0 KHz 
Frame rate : 46.875 fps (1024 spf) 
Compression mode : Lossy 
Stream size : 93.5 MiB (15%) 
Title : Stereo 
Default : Yes 
Alternate group : 1

Sharing Widget


Download torrent
611.04 MiB (640719793 Bytes)
seeders:0
leechers:0
Tulasidalam 2016 CAM Telugu Movies xviD-TvMovize.mp4



To share this torrent use the code below and insert it into comments, status messages, forum posts or your signature.

Torrent: Tulasidalam 2016 CAM Telugu Movies xviD-TvMovize.mp4

Trackers

tracker name
udp://tracker.coppersurfer.tk:6969/announce
udp://9.rarbg.me:2710/announce
udp://p4p.arenabg.ch:1337/announce
udp://tracker.leechers-paradise.org:6969/announce
udp://eddie4.nl:6969/announce
udp://thetracker.org:80/announce
udp://tracker.coppersurfer.tk:6969
udp://explodie.org:6969/announce
udp://tracker.aletorrenty.pl:2710/announce
udp://9.rarbg.to:2710/announce
udp://torrent.gresille.org:80/announce
udp://tracker.opentrackr.org:1337/announce
udp://tracker.piratepublic.com:1337/announce
udp://tracker.sktorrent.net:6969/announce
udp://zer0day.ch:1337/announce
??Torrent compatible trackers list

Locations

name
KickassTorrents
Torrent hash: 01C8E733AC6384503E45E723FB8F9D6BC486DEA9

All Comments

audio
0/10
video
0/10
please, leave only comments related to that torrent
Sign In

Report a bug Open chat