The.Gentlemen.2019.BRRip.XviD.B4ND1T69

seeders:
leechers:
updated:
Added by B4ND1T69 in TV
Torrent verified.

Description

The.Gentlemen.2019.BRRip.XviD.B4ND1T69

Director: Guy Ritchie
Writers: Guy Ritchie (screenplay by), Guy Ritchie (story by)
Stars: Matthew McConaughey, Charlie Hunnam, Michelle Dockery

Plot/Story:
An American expat tries to sell off his highly profitable marijuana empire in London, triggering plots, schemes, bribery and blackmail in an attempt to steal his domain out from under him.

General
Complete name               : The.Gentlemen.2019.BRRip.XviD.B4ND1T69.avi
Format                      : AVI
Format/Info                 : Audio Video Interleave
File size                   : 938 MiB
Duration                    : 1 h 53 min
Overall bit rate            : 1 154 kb/s
Subtitles                   : Yes...Included(HI)

Video
ID                          : 0
Format                      : MPEG-4 Visual
Format profile              : Advanced [email protected]
Format settings, BVOP       : 2
Format settings, QPel       : No
Format settings, GMC        : No warppoints
Format settings, Matrix     : Default (H.263)
Codec ID                    : XVID
Codec ID/Hint               : XviD
Duration                    : 1 h 53 min
Bit rate                    : 1 013 kb/s
Width                       : 720 pixels
Height                      : 304 pixels
Display aspect ratio        : 2.35:1
Frame rate                  : 23.976 (24000/1001) FPS
Color space                 : YUV
Chroma subsampling          : 4:2:0
Bit depth                   : 8 bits
Scan type                   : Progressive
Compression mode            : Lossy
Bits/(Pixel*Frame)          : 0.193
Stream size                 : 824 MiB (88%)
Writing library             : XviD 64

Audio
ID                          : 1
Format                      : MPEG Audio
Format version              : Version 1
Format profile              : Layer 3
Codec ID                    : 55
Codec ID/Hint               : MP3
Duration                    : 1 h 53 min
Bit rate mode               : Constant
Bit rate                    : 128 kb/s
Channel(s)                  : 2 channels
Sampling rate               : 48.0 kHz
Compression mode            : Lossy
Stream size                 : 104 MiB (11%)
Alignment                   : Aligned on interleaves
Interleave, duration        : 24  ms (0.58 video frame)

Screenshots:
https://i.imgur.com/6TFJ4Zk.png
https://i.imgur.com/754mytT.png
https://i.imgur.com/stsR4Ij.png
https://i.imgur.com/4AAJP9G.png
https://i.imgur.com/2pcWA2n.png
https://i.imgur.com/lb1pStF.png
https://i.imgur.com/YWtwjsS.png
https://i.imgur.com/CaV4eBC.png

Please Seed For As Long As Possible
Or At Least 1:1 Ratio...Thanks
Enjoy Peeps

Sharing Widget


Download torrent
seeders:
leechers:
The.Gentlemen.2019.BRRip.XviD.B4ND1T69



To share this torrent use the code below and insert it into comments, status messages, forum posts or your signature.

Torrent: The.Gentlemen.2019.BRRip.XviD.B4ND1T69

Trackers

tracker name
udp://tracker.coppersurfer.tk:6969/announce
udp://9.rarbg.me:2710/announce
udp://p4p.arenabg.ch:1337/announce
udp://tracker.leechers-paradise.org:6969/announce
udp://eddie4.nl:6969/announce
udp://thetracker.org:80/announce
udp://tracker.coppersurfer.tk:6969
udp://explodie.org:6969/announce
udp://tracker.aletorrenty.pl:2710/announce
udp://9.rarbg.to:2710/announce
udp://torrent.gresille.org:80/announce
udp://tracker.opentrackr.org:1337/announce
udp://tracker.piratepublic.com:1337/announce
udp://tracker.sktorrent.net:6969/announce
udp://zer0day.ch:1337/announce
??Torrent compatible trackers list

Locations

name
KickassTorrents
Torrent hash: 97E5114A7B16AD0970F1C9C6F697C0ACF6E7A414

All Comments

audio
0/10
video
0/10
please, leave only comments related to that torrent
Sign In

Report a bug Open chat