Fast and Furious 9 (2021) 1080p F9 English HEVC HDCAM x264 AAC

seeders:
leechers:
updated:
Added by shmasti in TV
Torrent verified.

Description

Visit Us = https://www.full4movies.org/

General
Complete name                  : Fast and Furious 9  (2021) 1080p F9 English HEVC HDCAM x264 AAC By Full4Movies.mkv
Format                         : Matroska
Format version                 : Version 4 / Version 2
File size                      : 1.37 GiB
Duration                       : 2 h 11 min
Overall bit rate               : 1 491 kb/s
Encoded date                   : UTC 2021-05-22 18:48:30
Writing application            : mkvmerge v8.3.0 ('Over the Horizon') 64bit
Writing library                : libebml v1.3.1 + libmatroska v1.4.2
Attachments                    : cooltext383845052472320.jpg

Video
ID                             : 1
Format                         : HEVC
Format/Info                    : High Efficiency Video Coding
Format profile                 : [email protected]@Main
Codec ID                       : V_MPEGH/ISO/HEVC
Duration                       : 2 h 11 min
Bit rate                       : 1 363 kb/s
Width                          : 1 920 pixels
Height                         : 800 pixels
Display aspect ratio           : 2.40:1
Frame rate mode                : Constant
Frame rate                     : 30.000 FPS
Color space                    : YUV
Chroma subsampling             : 4:2:0
Bit depth                      : 8 bits
Bits/(Pixel*Frame)             : 0.030
Stream size                    : 1.25 GiB (91%)
Writing library                : x265 2.9+1-169e76b6bbcc:[Windows][GCC 8.2.0][64 bit] 8bit+10bit+12bit
Language                       : English
Default                        : Yes
Forced                         : No

Audio
ID                             : 2
Format                         : AAC
Format/Info                    : Advanced Audio Codec
Format profile                 : LC
Codec ID                       : A_AAC
Duration                       : 2 h 11 min
Bit rate                       : 125 kb/s
Channel(s)                     : 2 channels
Channel positions              : Front: L R
Sampling rate                  : 48.0 kHz
Frame rate                     : 46.875 FPS (1024 SPF)
Compression mode               : Lossy
Stream size                    : 118 MiB (8%)
Language                       : English
Default                        : Yes
Forced                         : No

Sharing Widget


Download torrent
seeders:
leechers:
Fast and Furious 9 (2021) 1080p F9 English HEVC HDCAM x264 AAC



To share this torrent use the code below and insert it into comments, status messages, forum posts or your signature.

Torrent: Fast and Furious 9 (2021) 1080p F9 English HEVC HDCAM x264 AAC

Trackers

tracker name
udp://tracker.coppersurfer.tk:6969/announce
udp://9.rarbg.me:2710/announce
udp://p4p.arenabg.ch:1337/announce
udp://tracker.leechers-paradise.org:6969/announce
udp://eddie4.nl:6969/announce
udp://thetracker.org:80/announce
udp://tracker.coppersurfer.tk:6969
udp://explodie.org:6969/announce
udp://tracker.aletorrenty.pl:2710/announce
udp://9.rarbg.to:2710/announce
udp://torrent.gresille.org:80/announce
udp://tracker.opentrackr.org:1337/announce
udp://tracker.piratepublic.com:1337/announce
udp://tracker.sktorrent.net:6969/announce
udp://zer0day.ch:1337/announce
??Torrent compatible trackers list

Locations

name
KickassTorrents
Torrent hash: EBB9C5F211CB51828237C4976B53AC7B2E6BDFA6

All Comments

audio
0/10
video
0/10
please, leave only comments related to that torrent
Sign In

Report a bug Open chat