Chhichhore 2019 Hindi 720p Pre-DVD Rip x264 AAC { TaRa }.mkv

seeders: 496
leechers: 64
updated:
Added by SkTaRa in TV
Torrent verified.

Description

==================================================================
General
Complete name               : Chhichhore 2019 Hindi 720p Pre-DVD Rip x264 AAC { TaRa }.mkv
Format                      : Matroska
Format version              : Version 4
File size                   : 1.12 GiB
Duration                    : 2 h 18 min
Overall bit rate            : 1 158 kb/s
===================================================================
Video
ID                          : 1
Format                      : AVC
Format/Info                 : Advanced Video Codec
Format profile              : [email protected]
Format settings             : CABAC / 4 Ref Frames
Format settings, CABAC      : Yes
Format settings, Reference  : 4 frames
Codec ID                    : V_MPEG4/ISO/AVC
Duration                    : 2 h 18 min
Bit rate                    : 1 000 kb/s
Width                       : 1 280 pixels
Height                      : 544 pixels
Display aspect ratio        : 2.35:1
Frame rate mode             : Constant
Frame rate                  : 23.976 (23976/1000) FPS
Color space                 : YUV
Chroma subsampling          : 4:2:0
Bit depth                   : 8 bits
Scan type                   : Progressive
Bits/(Pixel*Frame)          : 0.060
Stream size                 : 988 MiB (86%)
Title                       : .....::::: TaRa :::::.....
Writing library             : x264 core 132
Language                    : Hindi
Default                     : Yes
Forced                      : No
===================================================================
Audio
ID                          : 2
Format                      : AAC LC
Format/Info                 : Advanced Audio Codec Low Complexity
Codec ID                    : A_AAC-2
Duration                    : 2 h 18 min
Bit rate                    : 158 kb/s
Channel(s)                  : 2 channels
Channel layout              : L R
Sampling rate               : 44.1 kHz
Frame rate                  : 43.066 FPS (1024 SPF)
Compression mode            : Lossy
Delay relative to video     : -84 ms
Stream size                 : 156 MiB (14%)
Title                       : .....::::: TaRa :::::.....
Language                    : Hindi
Default                     : Yes
Forced                      : No
=================================================================== 
https://extraimage.net/image/Satc 
https://extraimage.net/image/Sat1 
https://extraimage.net/image/SatE 
https://extraimage.net/image/SatO 
https://extraimage.net/image/SatS 
https://extraimage.net/image/Satq 
https://extraimage.net/image/Saty 
https://extraimage.net/image/SatQ 
https://extraimage.net/image/SatL 
https://extraimage.net/image/SatR 
https://extraimage.net/image/Satm 
https://extraimage.net/image/Sati

Sharing Widget


Download torrent
1.12 GiB (1203464438 Bytes)
seeders:496
leechers:64
Chhichhore 2019 Hindi 720p Pre-DVD Rip x264 AAC { TaRa }.mkv



To share this torrent use the code below and insert it into comments, status messages, forum posts or your signature.

Torrent: Chhichhore 2019 Hindi 720p Pre-DVD Rip x264 AAC { TaRa }.mkv

Trackers

tracker name
udp://tracker.coppersurfer.tk:6969/announce
udp://9.rarbg.me:2710/announce
udp://p4p.arenabg.ch:1337/announce
udp://tracker.leechers-paradise.org:6969/announce
udp://eddie4.nl:6969/announce
udp://thetracker.org:80/announce
udp://tracker.coppersurfer.tk:6969
udp://explodie.org:6969/announce
udp://tracker.aletorrenty.pl:2710/announce
udp://9.rarbg.to:2710/announce
udp://torrent.gresille.org:80/announce
udp://tracker.opentrackr.org:1337/announce
udp://tracker.piratepublic.com:1337/announce
udp://tracker.sktorrent.net:6969/announce
udp://zer0day.ch:1337/announce
??Torrent compatible trackers list

Locations

name
KickassTorrents
Torrent hash: 59A56CFC09B276B1C9D1D6EA50EAAD254CEA7E75

All Comments

audio
0/10
video
0/10
please, leave only comments related to that torrent
Sign In

Report a bug Open chat