Amazon Prime Video - Zakir Khan - Haq Se Single - Standup comedy

seeders:
leechers:
updated:
Added by th3pirat3 in TV
Torrent verified.

Description

Amazon Prime Video - Zakir Khan - Haq Se Single - Standup comedy
Webrip Decent Quality FLV Stream

Download - Watch - Seed


** Technical Data*


General
Complete name                    : Amazon Prime - Zakir Khan - Haq Se Single.flv
Format                           : Flash Video
File size                        : 568 MiB
Duration                         : 1h 32mn
Overall bit rate                 : 863 Kbps
Writing application              : Lavf57.66.102

Video
Format                           : AVC
Format/Info                      : Advanced Video Codec
Format profile                   : [email protected]
Format settings, CABAC           : Yes
Format settings, ReFrames        : 2 frames
Codec ID                         : 7
Duration                         : 1h 32mn
Bit rate                         : 2 441 Kbps
Width                            : 908 pixels
Height                           : 512 pixels
Display aspect ratio             : 16:9
Frame rate mode                  : Constant
Frame rate                       : 30.000 fps
Color space                      : YUV
Chroma subsampling               : 4:2:0
Bit depth                        : 8 bits
Scan type                        : Progressive
Bits/(Pixel*Frame)               : 0.175
Stream size                      : 1.57 GiB

Audio
Format                           : AAC
Format/Info                      : Advanced Audio Codec
Format profile                   : LC
Codec ID                         : 10
Duration                         : 1h 32mn
Bit rate                         : 125 Kbps
Channel(s)                       : 2 channels
Channel positions                : Front: L R
Sampling rate                    : 44.1 KHz
Compression mode                 : Lossy
Stream size                      : 82.3 MiB (14%)

Sharing Widget


Download torrent
seeders:
leechers:
Amazon Prime Video - Zakir Khan - Haq Se Single - Standup comedy



To share this torrent use the code below and insert it into comments, status messages, forum posts or your signature.

Torrent: Amazon Prime Video - Zakir Khan - Haq Se Single - Standup comedy

Trackers

tracker name
udp://tracker.coppersurfer.tk:6969/announce
udp://9.rarbg.me:2710/announce
udp://p4p.arenabg.ch:1337/announce
udp://tracker.leechers-paradise.org:6969/announce
udp://eddie4.nl:6969/announce
udp://thetracker.org:80/announce
udp://tracker.coppersurfer.tk:6969
udp://explodie.org:6969/announce
udp://tracker.aletorrenty.pl:2710/announce
udp://9.rarbg.to:2710/announce
udp://torrent.gresille.org:80/announce
udp://tracker.opentrackr.org:1337/announce
udp://tracker.piratepublic.com:1337/announce
udp://tracker.sktorrent.net:6969/announce
udp://zer0day.ch:1337/announce
??Torrent compatible trackers list

Locations

name
KickassTorrents
Torrent hash: 941E7D4E3FF564F6B0E853DDD6838D1BD8137014

All Comments

audio
0/10
video
0/10
please, leave only comments related to that torrent
Sign In

Report a bug Open chat