Ala Ela (2014) Telugu Movie 1CD HDRip x264 MP3 RDLinks Exclusive

seeders: 1
leechers: 0
updated:
Added by RDLinks in TV
Torrent verified.

Description

[center]
[img]http://i.imgur.com/Aa3RU3c.jpg[/img]

[img]http://i.imgur.com/48K8Qq0.jpg[/img]

[quote]
General

Format : Matroska
Format version : Version 4 / Version 2
File size : 702 MiB
Duration : 2h 17mn
Overall bit rate : 714 Kbps
Encoded date : UTC 2015-05-20 11:21:00


Video
ID : 1
Format : AVC
Format/Info : Advanced Video Codec
Format profile : [email protected]
Format settings, CABAC : Yes
Format settings, ReFrames : 3 frames
Codec ID : V_MPEG4/ISO/AVC
Duration : 2h 17mn
Bit rate : 632 Kbps
Width : 640 pixels
Height : 272 pixels
Display aspect ratio : 2.35:1
Frame rate mode : Constant
Frame rate : 25.000 fps
Color space : YUV
Chroma subsampling : 4:2:0
Bit depth : 8 bits
Scan type : Progressive
Bits/(Pixel*Frame) : 0.145
Stream size : 609 MiB (87%)

Audio
ID : 2
Format : MPEG Audio
Format version : Version 1
Format profile : Layer 3
Mode : Joint stereo
Mode extension : MS Stereo
Codec ID : A_MPEG/L3
Codec ID/Hint : MP3
Duration : 2h 17mn
Bit rate mode : Constant
Bit rate : 80.0 Kbps
Channel(s) : 2 channels
Sampling rate : 32.0 KHz
Compression mode : Lossy
Stream size : 78.7 MiB (11%)

[/quote]

[img]http://i.imgur.com/nzFpcWu.png[/img]
[img]http://i.imgur.com/kM3NR23.png[/img]
[img]http://i.imgur.com/3G8mAKm.png[/img]
[img]http://i.imgur.com/H1tTiVH.png[/img]
[img]http://i.imgur.com/EpkcJHG.png[/img]
[img]http://i.imgur.com/RbKB8cC.png[/img]


[b][color=Green]Sample Link :[/color][/b]

[code]
[/code]


[/center]

Sharing Widget


Download torrent
702.18 MiB (736290306 Bytes)
seeders:1
leechers:0
Ala Ela (2014) Telugu Movie 1CD HDRip x264 MP3 RDLinks Exclusive



To share this torrent use the code below and insert it into comments, status messages, forum posts or your signature.

Torrent: Ala Ela (2014) Telugu Movie 1CD HDRip x264 MP3 RDLinks Exclusive

Trackers

tracker name
udp://tracker.coppersurfer.tk:6969/announce
udp://9.rarbg.me:2710/announce
udp://p4p.arenabg.ch:1337/announce
udp://tracker.leechers-paradise.org:6969/announce
udp://eddie4.nl:6969/announce
udp://thetracker.org:80/announce
udp://tracker.coppersurfer.tk:6969
udp://explodie.org:6969/announce
udp://tracker.aletorrenty.pl:2710/announce
udp://9.rarbg.to:2710/announce
udp://torrent.gresille.org:80/announce
udp://tracker.opentrackr.org:1337/announce
udp://tracker.piratepublic.com:1337/announce
udp://tracker.sktorrent.net:6969/announce
udp://zer0day.ch:1337/announce
??Torrent compatible trackers list

Locations

name
KickassTorrents
Torrent hash: 42C05365FEFE688F0C80A7C05AB6EB6A3F94405A

All Comments

audio
0/10
video
0/10
please, leave only comments related to that torrent
Sign In

Report a bug Open chat